วันเสาร์ที่ 27 ตุลาคม พ.ศ. 2555

[One2up][Super Mini-HD] The Amazing Spider-Man ดิ อะเมซิ่ง สไปเดอร์แมน (2012) [720p][Audio:Th/En][SubTh/En]




   General
      Unique ID : 188328556813621808211523375774635932651 (0x8DAEC2BCE94F5C73A30F014770A43BEB)
      Complete name : SMH.TAS.mkv
      Format : Matroska
      Format version : Version 2
      File size : 1.60 GiB
      Duration : 2h 16mn
      Overall bit rate : 1 681 Kbps
      Movie name : The.Amazing.Spiderman.2012.720p.BrRip.x264_by NongZEZA@CtHts
      Encoded date : UTC 2012-10-25 11:31:32
      Writing application : mkvmerge v4.2.0 ('No Talking') built on Jul 28 2010 18:38:23
      Writing library : libebml v1.0.0 + libmatroska v1.0.0
   Video #1
      ID : 1
      Format : AVC
      Format/Info : Advanced Video Codec
      Format profile : High@L4.0
      Format settings, CABAC : Yes
      Format settings, ReFrames : 11 frames
      Codec ID : V_MPEG4/ISO/AVC
      Duration : 2h 16mn
      Bit rate : 827 Kbps
      Width : 1 280 pixels
      Height : 536 pixels
      Display aspect ratio : 2.40:1
      Frame rate : 23.976 fps
      Color space : YUV
      Chroma subsampling : 4:2:0
      Bit depth : 8 bits
      Scan type : Progressive
      Bits/(Pixel*Frame) : 0.050
      Stream size : 796 MiB (49%)
      Title : The.Amazing.Spiderman.2012.720p.BrRip.x264_by NongZEZA@CtHts
      Writing library : x264 core 125 r2200 999b753
      Encoding settings : cabac=1 / ref=12 / deblock=1:0:0 / analyse=0x3:0x133 / me=umh / subme=10 / psy=1 / psy_rd=1.00:0.00 / mixed_ref=1 / me_range=24 / chroma_me=1 / trellis=2 / 8x8dct=1 / cqm=0 / deadzone=21,11 / fast_pskip=1 / chroma_qp_offset=-2 / threads=12 / lookahead_threads=2 / sliced_threads=0 / nr=0 / decimate=1 / interlaced=0 / bluray_compat=0 / constrained_intra=0 / bframes=8 / b_pyramid=1 / b_adapt=2 / b_bias=2 / direct=3 / weightb=1 / open_gop=0 / weightp=2 / keyint=240 / keyint_min=23 / scenecut=40 / intra_refresh=0 / rc_lookahead=60 / rc=2pass / mbtree=1 / bitrate=827 / ratetol=1.0 / qcomp=0.60 / qpmin=10 / qpmax=51 / qpstep=4 / cplxblur=20.0 / qblur=0.5 / ip_ratio=1.40 / aq=1:1.00
      Language : English
      Default : Yes
      Forced : No
   Audio #2
      ID : 2
      Format : AC-3
      Format/Info : Audio Coding 3
      Mode extension : CM (complete main)
      Format settings, Endianness : Big
      Codec ID : A_AC3
      Duration : 2h 16mn
      Bit rate mode : Constant
      Bit rate : 448 Kbps
      Channel(s) : 6 channels
      Channel positions : Front: L C R, Side: L R, LFE
      Sampling rate : 48.0 KHz
      Bit depth : 16 bits
      Compression mode : Lossy
      Stream size : 437 MiB (27%)
      Title : Thai DVD Master
      Language : Thai
      Default : Yes
      Forced : Yes
   Audio #3
      ID : 3
      Format : AC-3
      Format/Info : Audio Coding 3
      Mode extension : CM (complete main)
      Format settings, Endianness : Big
      Codec ID : A_AC3
      Duration : 2h 16mn
      Bit rate mode : Constant
      Bit rate : 384 Kbps
      Channel(s) : 6 channels
      Channel positions : Front: L C R, Side: L R, LFE
      Sampling rate : 48.0 KHz
      Bit depth : 16 bits
      Compression mode : Lossy
      Stream size : 375 MiB (23%)
      Title : English
      Language : English
      Default : No
      Forced : No
   Text #4
      ID : 4
      Format : VobSub
      Codec ID : S_VOBSUB
      Codec ID/Info : The same subtitle format used on DVDs
      Title : Thai 480p DVD Master
      Language : Thai
      Default : No
      Forced : No
   Text #5
      ID : 5
      Format : VobSub
      Codec ID : S_VOBSUB
      Codec ID/Info : The same subtitle format used on DVDs
      Title : Thai 1080p Angsana
      Language : Thai
      Default : Yes
      Forced : Yes
   Text #6
      ID : 6
      Format : VobSub
      Codec ID : S_VOBSUB
      Codec ID/Info : The same subtitle format used on DVDs
      Title : Thai 1080p Angsana Out
      Language : Thai
      Default : No
      Forced : No
   Text #7
      ID : 7
      Format : VobSub
      Codec ID : S_VOBSUB
      Codec ID/Info : The same subtitle format used on DVDs
      Title : Thai 1080p Angsana Yellow
      Language : Thai
      Default : No
      Forced : No
   Text #8
      ID : 8
      Format : UTF-8
      Codec ID : S_TEXT/UTF8
      Codec ID/Info : UTF-8 Plain Text
      Language : English
      Default : No
      Forced : No




SCREENSHOT






TRAILER






DOWNLOAD

1 GB / PART



1 ความคิดเห็น:

Related Posts Plugin for WordPress, Blogger...