วันอังคารที่ 14 พฤษภาคม พ.ศ. 2556

[Mini-HD] The Haunting in Connecticut 2 : Ghosts of Georgia คฤหาสน์...ช็อค 2 (2013) [720p][Dub:ไทย/อังกฤษ][Sub:ไทย/อังกฤษ]






   General
      Unique ID : 179165312538705925312554255510851523520 (0x86C9FBEA22C56ACD8CFA60E4B21B93C0)
      Complete name :
      Format : Matroska
      Format version : Version 4 / Version 2
      File size : 2.67 GiB
      Duration : 1h 40mn
      Overall bit rate : 3 784 Kbps
      Movie name : The.Haunting.In.Connecticut.2.2013.1080p.BrRip.x264_by NongZEZA@CtHts
      Encoded date : UTC 2010-02-22 21:41:31
      Writing application : mkvmerge v5.9.0 ('On The Loose') built on Dec  9 2012 15:37:01
      Writing library : libebml v1.3.0 + libmatroska v1.4.0
   Video #1
      ID : 1
      Format : AVC
      Format/Info : Advanced Video Codec
      Format profile : High@L4.0
      Format settings, CABAC : Yes
      Format settings, ReFrames : 4 frames
      Codec ID : V_MPEG4/ISO/AVC
      Duration : 1h 40mn
      Bit rate : 2 500 Kbps
      Width : 1 920 pixels
      Height : 800 pixels
      Display aspect ratio : 2.40:1
      Frame rate mode : Constant
      Frame rate : 23.976 fps
      Color space : YUV
      Chroma subsampling : 4:2:0
      Bit depth : 8 bits
      Scan type : Progressive
      Bits/(Pixel*Frame) : 0.068
      Stream size : 1.77 GiB (66%)
      Title : The.Haunting.In.Connecticut.2.2013.1080p.BrRip.x264_by NongZEZA@CtHts
      Writing library : x264 core 120
      Encoding settings : cabac=1 / ref=3 / deblock=1:0:0 / analyse=0x3:0x113 / me=umh / subme=9 / psy=1 / psy_rd=1.00:0.00 / mixed_ref=1 / me_range=16 / chroma_me=1 / trellis=1 / 8x8dct=1 / cqm=0 / deadzone=21,11 / fast_pskip=1 / chroma_qp_offset=-2 / threads=12 / sliced_threads=0 / nr=0 / decimate=1 / interlaced=0 / bluray_compat=0 / constrained_intra=0 / bframes=3 / b_pyramid=2 / b_adapt=2 / b_bias=0 / direct=1 / weightb=1 / open_gop=0 / weightp=2 / keyint=240 / keyint_min=24 / scenecut=40 / intra_refresh=0 / rc_lookahead=50 / rc=2pass / mbtree=1 / bitrate=2500 / ratetol=1.0 / qcomp=0.60 / qpmin=3 / qpmax=69 / qpstep=4 / cplxblur=20.0 / qblur=0.5 / ip_ratio=1.40 / aq=1:1.00
      Language : English
      Default : Yes
      Forced : No
      Color primaries : BT.709
      Transfer characteristics : BT.709
      Matrix coefficients : BT.709
   Audio #2
      ID : 2
      Format : DTS
      Format/Info : Digital Theater Systems
      Mode : 16
      Format settings, Endianness : Big
      Codec ID : A_DTS
      Duration : 1h 40mn
      Bit rate mode : Constant
      Bit rate : 755 Kbps
      Channel(s) : 6 channels
      Channel positions : Front: L C R, Side: L R, LFE
      Sampling rate : 48.0 KHz
      Bit depth : 24 bits
      Compression mode : Lossy
      Stream size : 545 MiB (20%)
      Title : English DTS
      Language : English
      Default : No
      Forced : No
   Audio #3
      ID : 3
      Format : AC-3
      Format/Info : Audio Coding 3
      Mode extension : CM (complete main)
      Format settings, Endianness : Big
      Codec ID : A_AC3
      Duration : 1h 40mn
      Bit rate mode : Constant
      Bit rate : 448 Kbps
      Channel(s) : 6 channels
      Channel positions : Front: L C R, Side: L R, LFE
      Sampling rate : 48.0 KHz
      Bit depth : 16 bits
      Compression mode : Lossy
      Stream size : 324 MiB (12%)
      Title : Thai DVD Master
      Language : Thai
      Default : Yes
      Forced : Yes
   Text #4
      ID : 4
      Format : VobSub
      Codec ID : S_VOBSUB
      Codec ID/Info : The same subtitle format used on DVDs
      Title : Thai 480p DVD Master
      Language : Thai
      Default : No
      Forced : No
   Text #5
      ID : 5
      Format : VobSub
      Codec ID : S_VOBSUB
      Codec ID/Info : The same subtitle format used on DVDs
      Title : Thai 1080p
      Language : Thai
      Default : Yes
      Forced : Yes
   Text #6
      ID : 6
      Format : VobSub
      Codec ID : S_VOBSUB
      Codec ID/Info : The same subtitle format used on DVDs
      Title : Thai 1080p Out
      Language : Thai
      Default : No
      Forced : No
   Text #7
      ID : 7
      Format : VobSub
      Codec ID : S_VOBSUB
      Codec ID/Info : The same subtitle format used on DVDs
      Title : Thai 1080p Yellow
      Language : Thai
      Default : No
      Forced : No
   Text #8
      ID : 8
      Format : PGS
      Codec ID : S_HDMV/PGS
      Codec ID/Info : The same subtitle format used on BDs/HD-DVDs
      Title : Thai PGS
      Language : Thai
      Default : No
      Forced : No
   Text #9
      ID : 9
      Format : PGS
      Codec ID : S_HDMV/PGS
      Codec ID/Info : The same subtitle format used on BDs/HD-DVDs
      Title : Thai PGS Out
      Language : Thai
      Default : No
      Forced : No
   Text #10
      ID : 10
      Format : PGS
      Codec ID : S_HDMV/PGS
      Codec ID/Info : The same subtitle format used on BDs/HD-DVDs
      Title : Thai PGS Yellow
      Language : Thai
      Default : No
      Forced : No
   Text #11
      ID : 11
      Format : VobSub
      Codec ID : S_VOBSUB
      Codec ID/Info : The same subtitle format used on DVDs
      Title : English
      Language : English
      Default : No
      Forced : No




SCREENSHOT







TRAILER







DOWNLOAD




ไม่มีความคิดเห็น:

แสดงความคิดเห็น

Related Posts Plugin for WordPress, Blogger...